A safe site where you can download Games,softwares with high quality.Dont forget to share it with your friends.

Sunday, 25 December 2016

Dangal (2016) 1CD Desi PDvD x264 (Deflickered) -DDR-Exclusive torrent

Dangal (2016) 1CD Desi PDvD x264 (Deflickered) -DDR-Exclusive torrent(Not in HD quality)







SPECS 

Source: MPEG DUMP @ Lotty Ka Ware house (The P2P King of Pre)

Format : Matroska
Format : AVC
Format/Info : Advanced Video Codec
Format profile : High@L4.1
Format settings, CABAC : Yes
Format settings, ReFrames : 16 frames
Codec ID : V_MPEG4/ISO/AVC
Duration : 2 h 32 min
Bit rate mode : Variable
Bit rate : 573 kb/s
Maximum bit rate : 62.5 Mb/s
Width : 640 pixels
Height : 240 pixels
Display aspect ratio : 2.667
Frame rate mode : Constant
Frame rate : 25.000 FPS
Color space : YUV
Chroma subsampling : 4:2:0
Bit depth : 8 bits
Scan type : Progressive
Bits/(Pixel*Frame) : 0.149
Stream size : 625 MiB (90%)
Writing library : x264 core 148 r2744 b97ae06
Default : Yes
Forced : No
Color range : Limited
Color primaries : BT.601 NTSC
Transfer characteristics : BT.601
Matrix coefficients : BT.601

Audio #1
Format : AAC
Format/Info : Advanced Audio Codec
Format profile : LC
Codec ID : A_AAC
Duration : 2 h 32 min
Bit rate : 64.0 kb/s
Channel(s) : 2 channels
Channel positions : Front: L R
Sampling rate : 48.0 kHz
Frame rate : 46.875 FPS (1024 spf)
Compression mode : Lossy
Delay relative to video : 9 ms
Stream size : 69.8 MiB (10%)
Language : Hindi
Default : Yes
Forced : No

(NOT IN HD QUALITY(R.I.P)(EXCLUSIVE)
Chapters : None

SAMPLE Included


A DDR Exclusive Encode

(torrent)
Share this post
  • Share to Facebook
  • Share to Twitter
  • Share to Google+
  • Share to Stumble Upon
  • Share to Evernote
  • Share to Blogger
  • Share to Email
  • Share to Yahoo Messenger
  • More...

0 comments

:) :-) :)) =)) :( :-( :(( :d :-d @-) :p :o :>) (o) [-( :-? (p) :-s (m) 8-) :-t :-b b-( :-# =p~ :-$ (b) (f) x-) (k) (h) (c) cheer

 
Posts RSSComments RSSBack to top
© 2016 SIM'S PRODUCTS ∙ Designed by AMJiD Ali